Интеллигентный торрент-трекер
Нас вместе: 3 807 064 | Новости торрент-трекера | Как тут скачивать? | Как раздавать торренты? | Правила оформления

Новый Камеди Клаб / Комеди Клаб / Comedy Club/ Выпуск №369 (Сезон 9, эпизод 5) (31.05.2013) SATRip


 
 
RSS
Начать новую тему   Ответить на тему    Торрент-трекер NNM-Club -> Юмор -> ПостКВН
Предыдущая тема :: Следующая тема  
Автор Сообщение
svlesin ®
Куратор Документалистики/TV
RG Releasers
 


Стаж: 4 года 10 месяцев
Сообщений: 21897
Ratio: 433,018
Поблагодарили: 1512700
100%

Сообщение 31 Май 2013 15:48:34  Заголовок сообщения: Новый Камеди Клаб / Комеди Клаб / Comedy Club/ Выпуск №369 (Сезон 9, эпизод 5) (31.05.2013) SATRip Ответить с цитатой

Новый Камеди Клаб / Комеди Клаб / Comedy Club/ Выпуск №369 (Сезон 9, эпизод 5) (31.05.2013) SATRip

Режиссер / Телекомпания: ТНТ
Русское название: Камеди Клаб / Комеди Клаб
Год выпуска: 2013
Жанр: Телепередача
Описание:
«Comedy Club» был создан в 2005 году командой КВН «Новые армяне», в состав которой входили Артур Джанибекян, Артак Гаспарян, Артур Тумасян, Арташес Саркисян, Гарик Мартиросян и другие. Его идея была задумана ещё в 2001 году, когда Арташес Саркисян, побывав в США, увидел местный «Comedy Club». Временами стали появляться новые участники «Comedy Club», в основном из КВН. 23 апреля 2005 года «Comedy Club» впервые вышел в эфир телеканала ТНТ. Рейтинги программы стали бить все рекорды и это приносило программе большие доходы, на которые они стали делать другие проекты. Впоследствии они создали свою продюсерскую компанию «Comedy Club Production». 15 апреля 2007 года на ТНТ был показан сотый выпуск программы. Регулярно выходят новые выпуски и другие проекты - например спецвыпуски на Первом канале, юмористические фестивали и продюсирование участниками «Comedy Club» проекты других телепередач. 23 апреля 2010 года «Comedy Club» вышло с новой музыкой и обновлённым оформлением. Также «Comedy Club» выходит на каналах ICTV, НТВ+ - Мир и Comedy TV.
Как всегда, Comedy Club собрал все самое смешное, чтобы оставаться самым крутым юмористическим шоу на телевидении. Камеры готовы? Музыканты готовы? Зрители готовы? Поехали!
Участники:
Гарик Мартиросян, Вадим Галыгин, Павел Воля, Тимур Батрутдинов, Александр Ревва, Гавр, Олег Верещагин, Дмитрий Сорокин, Зураб Матуa, Андрей Аверин, Алексей Лихницкий, Роман Юнусов, Антон Лирник, Андрей Молочный, Александр Незлобин, Дмитрий Хрусталёв, Васильев Виктор, Сергей Бессмертный, Александр Незлобин, Игорь Меерсон, Семён Слепаков, Михаил Галустян.
Продолжительность: ~ 00:45:46

Видеокодек: XviD
Битрейт видео: ~1500 kb/s
Размер кадра: 720 x 400
Качество видео: SATRip
Аудиокодек: MP3, 2ch.
Битрейт аудио: 128 kb/s
Формат : AVI
Формат/Информация : Audio Video Interleave
Размер файла : 539 Мбайт
Продолжительность : 46 м.
Общий поток : 1638 Кбит/сек
Библиотека кодирования : VirtualDub build 32706/release

Видео
Идентификатор : 0
Формат : MPEG-4 Visual
Профиль формата : Advanced Simple@L5
Параметр BVOP формата : 2
Параметр QPel формата : Нет
Параметр GMC формата : Без точки перехода
Параметр матрицы формата : Default (MPEG)
Идентификатор кодека : XVID
Идентификатор кодека/Подсказка : XviD
Продолжительность : 46 м.
Битрейт : 1501 Кбит/сек
Ширина : 720 пикселей
Высота : 400 пикселей
Соотношение сторон : 16:9
Частота кадров : 25,000 кадров/сек
Цветовое пространство : YUV
Субдискретизация насыщенности : 4:2:0
Битовая глубина : 8 бит
Тип развёртки : Прогрессивная
Метод сжатия : С потерями
Бит/(Пиксели*Кадры) : 0.208
Размер потока : 494 Мбайт (92%)
Библиотека кодирования : XviD 1.2.1 (UTC 2008-12-04)

Аудио
Идентификатор : 1
Формат : MPEG Audio
Версия формата : Version 1
Профиль формата : Layer 3
Режим : Joint stereo
Расширение режима : MS Stereo
Идентификатор кодека : 55
Идентификатор кодека/Подсказка : MP3
Продолжительность : 46 м.
Вид битрейта : Постоянный
Битрейт : 128 Кбит/сек
Каналы : 2 канала
Частота : 48,0 КГц
Метод сжатия : С потерями
Размер потока : 42,1 Мбайт (8%)
Выравнивание : Разделение по промежуткам
Продолжительность промежутка : 40 мс. (1,00 видеокадр)
Время предзагрузки промежутка : 500 мс.
Скриншоты:

Rip by mr.Vas
Новый Камеди Клаб / Комеди Клаб / Comedy Club на NoNaMe Club
[NNM-Club.ru]_Novyiy Comedy Club №369.avi.torrent
 Торрент: Золотая раздача  Зарегистрирован
 
Примагнититься

Зарегистрируйтесь и скачайте торрент!
 Зарегистрирован:   31 Май 2013 15:48:34
 Размер:   537 MB  (
 Рейтинг:   4,7 (Голосов: 142)
 Поблагодарили:   619
 Проверка:   Оформление проверено модератором 31 Май 2013 15:49:07
Как cкачать  ·  Как раздать  ·  Правильно оформить  ·  Поднять ратио!  

_________________
Исправил релиз - напиши с ссылкой на него в теле письма. Как правильно написать письмо Модератору!!! Мои Релизы..
Показать сообщения:   
Начать новую тему   Ответить на тему    Торрент-трекер NNM-Club -> Юмор -> ПостКВН Часовой пояс: GMT + 4
Страница 1 из 1