Интеллигентный торрент-трекер
Нас вместе: 3 820 551 | Новости торрент-трекера | Как тут скачивать? | Как раздавать торренты? | Правила оформления

Сергей Бабкин - Сергевна (2013) [FLAC|Lossless]<Rock>


 
 
RSS
Начать новую тему   Ответить на тему    Торрент-трекер NNM-Club -> Rock, Alternative, Punk, Metal -> Русский Рок (Lossless)
Предыдущая тема :: Следующая тема  
Автор Сообщение
D0G ®
RG Музыки
 


Стаж: 4 года 10 месяцев
Сообщений: 1801
Ratio: 10,773
Раздал: 11,44 TB
Поблагодарили: 48382
100%
pirates.png

Сообщение 07 Апр 2013 13:10:45  Заголовок сообщения: Сергей Бабкин - Сергевна (2013) [FLAC|Lossless]<Rock> Ответить с цитатой

Сергей Бабкин - Сергевна - 2013
Год: 2013
Жанр: Rock
Страна: Украина
Издатель: Lavina Music [LM CD - 620]
Кодек: FLAC
Битрейт: Lossless
Тип рипа: image+.cue
Продолжительность: 00:46:24
Треклист:

01. Возьми меня
02. Моя любовь
03. Только душа
04. Недотрога
05. Выдуманная
06. Я пойду с тобой
07. Мимо нас
08. Приятных снов
09. Прилетай
10. Вес-на
11. Никогда никому
12. Ты всё


MP3
Код:
Exact Audio Copy V1.0 beta 3 from 29. August 2011

Отчёт EAC об извлечении, выполненном 7. апреля 2013, 15:08

Сергей Бабкин / Сергевна

Дисковод: TSSTcorpCDDVDW SH-S222A   Adapter: 2  ID: 0

Режим чтения                 : Достоверность
Использование точного потока : Да
Отключение кэша аудио        : Да
Использование указателей C2  : Нет

Коррекция смещения при чтении                     : 6
Способность читать области Lead-in и Lead-out     : Нет
Заполнение пропущенных сэмплов тишиной            : Да
Удаление блоков с тишиной в начале и конце        : Нет
При вычислениях CRC использовались нулевые сэмплы : Да
Интерфейс                                         : Встроенный Win32-интерфейс для Win NT/2000

Выходной формат          : Пользовательский кодировщик
Выбранный битрейт        : 768 kBit/s
Качество                 : Высокий
Добавление ID3-тега      : Нет
Утилита сжатия           : C:\Program Files (x86)\Exact Audio Copy\FLAC\FLAC.EXE
Дополнительные параметры : -6 -V -T "ARTIST=%artist%" -T "TITLE=%title%" -T "ALBUM=%albumtitle%" -T "DATE=%year%" -T "TRACKNUMBER=%tracknr%" -T "GENRE=%genre%" -T "COMMENT=%comment%" -T "BAND=%albuminterpret%" -T "ALBUMARTIST=%albuminterpret%" -T "COMPOSER=%composer%" %haslyrics%--tag-from-file=LYRICS="%lyricsfile%"%haslyrics% -T "DISCNUMBER=%cdnumber%" -T "TOTALDISCS=%totalcds%" -T "TOTALTRACKS=%numtracks%" %hascover%--picture="%coverfile%"%hascover% %source% -o %dest%

TOC извлечённого CD

     Трек |   Старт  | Длительность | Начальный сектор | Конечный сектор
    ---------------------------------------------------------------------
       1  |  0:00.00 |    3:36.05   |           0      |      16204
       2  |  3:36.05 |    3:54.00   |       16205      |      33754
       3  |  7:30.05 |    3:32.60   |       33755      |      49714
       4  | 11:02.65 |    4:17.29   |       49715      |      69018
       5  | 15:20.19 |    4:10.33   |       69019      |      87801
       6  | 19:30.52 |    3:10.62   |       87802      |     102113
       7  | 22:41.39 |    4:06.36   |      102114      |     120599
       8  | 26:48.00 |    4:10.65   |      120600      |     139414
       9  | 30:58.65 |    4:51.73   |      139415      |     161312
      10  | 35:50.63 |    3:04.66   |      161313      |     175178
      11  | 38:55.54 |    4:04.68   |      175179      |     193546
      12  | 43:00.47 |    3:23.62   |      193547      |     208833

Характеристики диапазона извлечения и сообщения об ошибках

Выбранный диапазон

     Имя файла G:\MUSIC\Сергей Бабкин 2013 - Сергевна\Сергей Бабкин - Сергевна.wav

     Пиковый уровень 100.0 %
     Скорость извлечения 7.1 X
     Качество диапазона 99.9 %
     CRC теста C78DF804
     CRC копии C78DF804
     Копирование... OK

Ошибок не произошло

AccurateRip: сводка

Трек  1  отсутствует в базе данных
Трек  2  отсутствует в базе данных
Трек  3  отсутствует в базе данных
Трек  4  отсутствует в базе данных
Трек  5  отсутствует в базе данных
Трек  6  отсутствует в базе данных
Трек  7  отсутствует в базе данных
Трек  8  отсутствует в базе данных
Трек  9  отсутствует в базе данных
Трек 10  отсутствует в базе данных
Трек 11  отсутствует в базе данных
Трек 12  отсутствует в базе данных

Ни одного трека нет в базе AccurateRip

Конец отчёта

==== Контрольная сумма отчёта 895597017BD280876988E36661BBC59FB34E8BD9B1488154CEC1DE5BEE888F27 ====
Код:
-----------------------

DON'T MODIFY THIS FILE

-----------------------

PERFORMER: auCDtect Task Manager, ver. 1.5.1RC6 build 1.5.1.7
Copyright (c) 2008-2010 y-soft. All rights reserved
http://y-soft.org

ANALYZER: auCDtect: CD records authenticity detector, version 0.8.2
Copyright (c) 2004 Oleg Berngardt. All rights reserved.
Copyright (c) 2004 Alexander Djourik. All rights reserved.

FILE: Сергей Бабкин - Сергевна.flac
  Size: 312181479 Hash: A1E52D696C358131935BB240BB5115E7 Accuracy: -m0
  Conclusion: CDDA 100%
  Signature: 4CD184CC7A7642A31EA6FF06CD3C149AA1720252
Спасибо: dnipro87
Время раздачи: с 17:00 до 0:00
[NNM-Club.ru]_Sergey Babkin - Sergevna - 2013.torrent
 Торрент:   Зарегистрирован
 


Зарегистрируйтесь и скачайте торрент!
 Зарегистрирован:   08 Апр 2013 18:47:11
 Размер:   313 MB  (
 Рейтинг:   4,5 (Голосов: 19)
 Поблагодарили:   81
 Проверка:   Оформление проверено модератором 09 Апр 2013 06:46:09
Как cкачать  ·  Как раздать  ·  Правильно оформить  ·  Поднять ратио!  

_________________


Последний раз редактировалось: D0G (08 Апр 2013 18:47:06), всего редактировалось 1 раз
Bigbeer
Модератор Музыки
RG Музыки
 


Стаж: 5 лет 1 месяц
Сообщений: 2398
Ratio: 37,099
Раздал: 5,197 TB
Поблагодарили: 27125
100%
pirates.png

Сообщение 07 Апр 2013 15:39:34  Заголовок сообщения: Ответить с цитатой

D0G писал(а):
Комбинированное смещение чтения/записи            : 0

До появления правильного рипа, пусть будет.

_________________
Исправил релиз напиши мне в ЛС со ссылкой на него.
D0G ®
RG Музыки
 


Стаж: 4 года 10 месяцев
Сообщений: 1801
Ratio: 10,773
Раздал: 11,44 TB
Поблагодарили: 48382
100%
pirates.png

Сообщение 08 Апр 2013 18:52:42  Заголовок сообщения: Ответить с цитатой

Релиз обновлен, рип заменен на более корректный =)

_________________
uriahh


Стаж: 3 года 6 месяцев
Сообщений: 125
Ratio: 231,081
100%
Откуда: ФИЛИ
russia.gif

Сообщение 09 Апр 2013 14:00:13  Заголовок сообщения: Ответить с цитатой

Конечно релизеру спасибо за труды.... =)

Но если это РОК, то я Анастасия Волочкова.... :шок:
genewet


Стаж: 4 года 7 месяцев
Сообщений: 27
Ratio: 2,756
0.52%
Откуда: Moscow
russia.gif

Сообщение 09 Апр 2013 15:55:51  Заголовок сообщения: Ответить с цитатой

uriahh писал(а): Перейти к сообщению
Конечно релизеру спасибо за труды.... =)

Но если это РОК, то я Анастасия Волочкова.... :шок:
Вообще-то Волочкова - это Trash Metal,а Бабкин это этническая музыка среднеукраинской возвышенности.
Показать сообщения:   
Начать новую тему   Ответить на тему    Торрент-трекер NNM-Club -> Rock, Alternative, Punk, Metal -> Русский Рок (Lossless) Часовой пояс: GMT + 4
Страница 1 из 1