Интеллигентный торрент-трекер
загрузка...
Нас вместе: 3 852 004 | Новости торрент-трекера | Как тут скачивать? | Как раздавать торренты? | Правила оформления

Падение Олимпа / Olympus Has Fallen (2013) [1080p] HDTVRip [Трейлер] [EN]


 
 
RSS
Начать новую тему   Ответить на тему    Торрент-трекер NNM-Club -> Архив торрентов -> Архив Видео
Предыдущая тема :: Следующая тема  
Автор Сообщение
Long__Boy ®


Стаж: 2 года
Сообщений: 838
Ratio: 91,4
Поблагодарили: 109055
100%

Сообщение 23 Янв 2013 11:08:53  Заголовок сообщения: Падение Олимпа / Olympus Has Fallen (2013) [1080p] HDTVRip [Трейлер] [EN] Ответить с цитатой

Падение Олимпа / Olympus Has Fallen

Русское название: Падение Олимпа
Оригинальное название: Olympus Has Fallen
Год выпуска: 2013
Производство: США / Millennium Films, Modern VideoFilm, Nu Image / Millennium Films
Жанр: Боевик, триллер
Перевод: Отсутствует
Язык: Английский
Дата мировой премьеры: 21 марта 2013
Дата российской премьеры: 21 марта 2013, «Парадиз»
Дата выхода DVD/Blu Ray: N/A
Режиссер: Антуан Фукуа
Актеры: Джерард Батлер, Аарон Экхарт, Морган Фриман, Эшли Джадд, Мелисса Лео, Дилан МакДермотт, Рада Митчелл, Коул Хаузер
Описание фильма:
История бывшего секретного агента, который становится единственной надеждой Америки после того, как группа террористов захватывает здание Белого дома.

Продолжительность: 00:02:30
Качество видео: HDTVRip
Видеокодек: MPEG-4 AVC/H.264
Битрейт видео: ~9 449 Kbps
Размер кадра: 1920x800
Аудиокодек: AAC 2.0
Битрейт аудио: 96 Kbps
Код:
General
Complete name                            : E:\olympushasfallen-tlr1_h1080p.mov
Format                                   : MPEG-4
Format profile                           : QuickTime
Codec ID                                 : qt
File size                                : 171 MiB
Duration                                 : 2mn 30s
Overall bit rate                         : 9 552 Kbps
Movie name                               : Olympus Has Fallen
Movie name/More                          : In theaters 2012
Encoded date                             : UTC 2013-01-21 22:21:48
Tagged date                              : UTC 2013-01-21 22:21:52
Writing library                          : Apple QuickTime 7.6.0
Original source medium                   : 001

Video
ID                                       : 1
Format                                   : AVC
Format/Info                              : Advanced Video Codec
Format profile                           : Main@L4.0
Format settings, CABAC                   : No
Format settings, ReFrames                : 2 frames
Codec ID                                 : avc1
Codec ID/Info                            : Advanced Video Coding
Duration                                 : 2mn 30s
Bit rate                                 : 9 449 Kbps
Width                                    : 1 920 pixels
Height                                   : 800 pixels
Display aspect ratio                     : 2.40:1
Frame rate mode                          : Constant
Frame rate                               : 23.976 fps
Color space                              : YUV
Chroma subsampling                       : 4:2:0
Bit depth                                : 8 bits
Scan type                                : Progressive
Bits/(Pixel*Frame)                       : 0.257
Stream size                              : 169 MiB (99%)
Language                                 : English
Encoded date                             : UTC 2013-01-21 21:00:51
Tagged date                              : UTC 2013-01-21 22:21:52
Color primaries                          : BT.709
Transfer characteristics                 : BT.709
Matrix coefficients                      : BT.709

Audio
ID                                       : 2
Format                                   : AAC
Format/Info                              : Advanced Audio Codec
Format profile                           : LC
Codec ID                                 : 40
Duration                                 : 2mn 30s
Source duration                          : 2mn 30s
Bit rate mode                            : Constant
Bit rate                                 : 96.0 Kbps
Channel(s)                               : 2 channels
Channel positions                        : Front: L R
Sampling rate                            : 44.1 KHz
Compression mode                         : Lossy
Stream size                              : 1.76 MiB (1%)
Source stream size                       : 1.76 MiB (1%)
Language                                 : English
Encoded date                             : UTC 2013-01-21 21:00:51
Tagged date                              : UTC 2013-01-21 22:21:52

Menu
ID                                       : 3
Duration                                 : 2mn 30s
Language                                 : English
Encoded date                             : UTC 2013-01-21 21:01:03
Tagged date                              : UTC 2013-01-21 22:21:52
Скриншоты:


Время раздачи: 24/7 до 3х скачавших, дальше по мере возможности...
Постер и оформление Long__Boy®


[NNM-Club.ru]_olympushasfallen-tlr1_h1080p.mov.torrent
 Торрент:   Зарегистрирован
 
Примагнититься

Зарегистрируйтесь и скачайте торрент!
 Зарегистрирован:   23 Янв 2013 11:08:54
 Размер:   171 MB  (
 Рейтинг:   4,1 (Голосов: 29)
 Поблагодарили:   68
 Проверка:   Оформление проверено модератором 23 Янв 2013 12:22:54
Как cкачать  ·  Как раздать  ·  Правильно оформить  ·  Поднять ратио!  
Florida


Стаж: 6 лет 8 месяцев
Сообщений: 83
Ratio: 1,126
Поблагодарили: 205
1.08%
Откуда: Луганск
ukraine.gif

Сообщение 23 Янв 2013 20:53:39  Заголовок сообщения: Ответить с цитатой

Сэм Фишер, ты ли это? =)
Lelya_K
Зам. Куратора Видео
RG Всё лучшее - детям!
 


Стаж: 3 года 7 месяцев
Сообщений: 5534
Ratio: 8192,897
Раздал: 108,9 TB
Поблагодарили: 553264
100%
Откуда: Московская область
nnm-club.gif

Сообщение 01 Окт 2013 00:15:53  Заголовок сообщения: Ответить с цитатой

Падение Олимпа / Olympus Has Fallen (2013) ВDRip
Падение Олимпа / Olympus Has Fallen (2013) BDRip [H.264]
Падение Олимпа / Olympus Has Fallen (2013) BDRip [720p]
Падение Олимпа / Olympus Has Fallen (2013) BDRip [1080p]
Падение Олимпа / Olympus Has Fallen (2013) BDRemux [1080p]
Сообщение 01 Окт 2013 00:16:03

Топик был перенесен из форума Трейлеры в форум Архив Видео


Lelya_K
Показать сообщения:   
Начать новую тему   Ответить на тему    Торрент-трекер NNM-Club -> Архив торрентов -> Архив Видео Часовой пояс: GMT + 3
Страница 1 из 1