Интеллигентный торрент-трекер
Нас вместе: 3 826 502 | Новости торрент-трекера | Как тут скачивать? | Как раздавать торренты? | Правила оформления

Притчи (2010) DVDRip


 
 
RSS
Начать новую тему   Ответить на тему    Торрент-трекер NNM-Club -> Отечественное кино -> Отечественные Фильмы (HD*Rip/LQ, DVDRip, SATRip, VHSRip)
Предыдущая тема :: Следующая тема  
Автор Сообщение
Jurchic ®


Стаж: 4 года 1 месяц
Сообщений: 805
Ratio: 139,921
Поблагодарили: 56091
53.63%

Сообщение 14 Янв 2013 22:14:03  Заголовок сообщения: Притчи (2010) DVDRip Ответить с цитатой

Притчи (2010) DVDRip
Год выпуска: 2010
Производство: Беларусь | Студия "Во Имя Святого исповедника Иоанна Воина"
Жанр: лирическая комедия

Описание фильма:
В октябре 2010 года студия во имя св. Иоанна Воина закончила работу над своим первым художественным фильмом «Притчи». Уникальность этой картины в том, что впервые в Беларуси съемки художественного фильма были организованы силами монастыря.

В основу сюжета легли три истории из православного духовного наследия:
» Идею первой - «Необычное послушание» - подсказала притча из древнего Патерика: от похвалы не возгордиться и не роптать, когда бранят.
» Вторая история - «Немая молитва», - рассказанная святителем Василием Кинешемским, показывает, что даже стоя в храме, мы зачастую думаем о делах мирских, но при этом хотим быть услышанными.
» Третья новелла - рассказ отца Павла Груздева о том, «Как Христос в гости ходил», но, облаченный в земное, был в очередной раз отвергнут.

Жанр картины - лирическая комедия. Действие же перенесено в современность для ее более легкого восприятия. Это сознательный шаг. Режиссер желает донести до нас всю красоту монашеского подвига и в простой понятной форме рассказать нам о чудесах веры и молитвы.

Режиссер: Виталий Любецкий
Актеры: Александр Ткаченок, Михаил Ейсман, Елена Сидорова, Никита Пальчевский, Андрей Волчек

Продолжительность: 00:55:35
Качество видео: DVDRip


Видеокодек: Xvid
Битрейт видео: ~1801 Кбит/сек
Размер кадра: 720*408
Аудиокодек: AC3 2.0
Битрейт аудио: 224 Кбит/сек
Код:
Общее
Полное имя                               : :\\Pritchi (2010).DVDRip.avi
Формат                                   : AVI
Формат/Информация                        : Audio Video Interleave
Размер файла                             : 809 Мбайт
Продолжительность                        : 55 м.
Общий поток                              : 2035 Кбит/сек
Программа кодирования                    : VirtualDubMod 1.5.10.2 (build 2540/release)
Библиотека кодирования                   : VirtualDubMod build 2540/release

Видео
Идентификатор                            : 0
Формат                                   : MPEG-4 Visual
Профиль формата                          : Advanced Simple@L5
Параметр BVOP формата                    : 1
Параметр QPel формата                    : Нет
Параметр GMC формата                     : Без точки перехода
Параметр матрицы формата                 : Default (H.263)
Идентификатор кодека                     : XVID
Идентификатор кодека/Подсказка           : XviD
Продолжительность                        : 55 м.
Битрейт                                  : 1801 Кбит/сек
Ширина                                   : 720 пикселей
Высота                                   : 408 пикселей
Соотношение сторон                       : 16:9
Частота кадров                           : 25,000 кадров/сек
Цветовое пространство                    : YUV
Субдискретизация насыщенности            : 4:2:0
Битовая глубина                          : 8 бит
Тип развёртки                            : Прогрессивная
Метод сжатия                             : С потерями
Бит/(Пиксели*Кадры)                      : 0.245
Размер потока                            : 716 Мбайт (89%)
Библиотека кодирования                   : XviD 1.2.1 (UTC 2008-12-04)

Аудио
Идентификатор                            : 1
Формат                                   : AC-3
Формат/Информация                        : Audio Coding 3
Расширение режима                        : CM (complete main)
Параметр Endianness формата              : Big
Идентификатор кодека                     : 2000
Продолжительность                        : 55 м.
Вид битрейта                             : Постоянный
Битрейт                                  : 224 Кбит/сек
Каналы                                   : 2 канала
Расположение каналов                     : Front: L R
Частота                                  : 48,0 КГц
Битовая глубина                          : 16 бит
Метод сжатия                             : С потерями
Размер потока                            : 89,1 Мбайт (11%)
Выравнивание                             : Соединение по промежуткам
Продолжительность промежутка             : 40  мс. (1,00 видеокадр)
Время предзагрузки промежутка            : 512  мс.
Скриншоты:


Время раздачи: 24/7 до первых 3-х скачавших, далее по возможности
[NNM-Club.ru]Pritchi (2010).DVDRip.avi.torrent
 Торрент:   Зарегистрирован
 
Примагнититься

Зарегистрируйтесь и скачайте торрент!
 Зарегистрирован:   14 Янв 2013 22:14:03
 Размер:   809 MB  (
 Рейтинг:   4,6 (Голосов: 53)
 Поблагодарили:   179
 Проверка:   Оформление проверено модератором 15 Янв 2013 05:22:24
Как cкачать  ·  Как раздать  ·  Правильно оформить  ·  Поднять ратио!  
Voin-700


Стаж: 3 года 11 месяцев
Сообщений: 192
Ratio: 129,804
100%
Откуда: где хорошо)))
ukraine.gif

Сообщение 15 Янв 2013 22:33:03  Заголовок сообщения: Ответить с цитатой

СПАСИБО!!! Очень Признателен!!!
Показать сообщения:   
Начать новую тему   Ответить на тему    Торрент-трекер NNM-Club -> Отечественное кино -> Отечественные Фильмы (HD*Rip/LQ, DVDRip, SATRip, VHSRip) Часовой пояс: GMT + 4
Страница 1 из 1