Интеллигентный торрент-трекер
Нас вместе: 3 815 573 | Новости торрент-трекера | Как тут скачивать? | Как раздавать торренты? | Правила оформления

Большая история: Причина смерти – авиакатастрофа (2009) TVRip


 
 
RSS
Начать новую тему   Ответить на тему    Торрент-трекер NNM-Club -> Документалистика и Телепередачи -> Крылья России
Предыдущая тема :: Следующая тема  
Автор Сообщение
МиSHа ®
Модератор Документалистики/TV


Стаж: 3 года 8 месяцев
Сообщений: 1155
Ratio: 86,938
Поблагодарили: 35865
100%
russia.gif

Сообщение 02 Дек 2012 12:38:50  Заголовок сообщения: Большая история: Причина смерти – авиакатастрофа (2009) TVRip Ответить с цитатой

Большая история: Причина смерти – авиакатастрофа (2009) TVRip
Название: Большая история: Причина смерти – авиакатастрофа

Режиссер: Е. Пешков
Год выпуска: 2009
Жанр: Документальный

Описание:
Кто виноват в том, что машины, управляемые летчиками-асами разбиваются? Когда идет речь об авиакатастрофах, в причинах трагедии зачастую не разобраться ни через год, ни через пять лет. В свидетельствах о смерти погибших пассажиров не пишут: причина смерти – пилот или диспетчер, или техническая неисправность. В них пишут безжалостное, но единственно возможное в таких случаях: причина смерти – авиакатастрофа.

Продолжительность: 01:34:19

Видеокодек: DivX 5
Битрейт видео: ~1300 Кбит/сек
Размер кадра: 640/480
Качество видео: TVRip
Аудиокодек: MPEG Layer 3
Битрейт аудио: 128 Кбит/сек, 44.1 КГц, 2 ch
Полное имя : D:\Prichina smerti - aviakatastrofa 2009.avi
Формат : AVI
Формат/Информация : Audio Video Interleave
Размер файла : 970 Мбайт
Продолжительность : 1 ч. 34 м.
Общий поток : 1438 Кбит/сек

Видео
Идентификатор : 0
Формат : MPEG-4 Visual
Параметр BVOP формата : 1
Параметр QPel формата : Нет
Параметр GMC формата : Без точки перехода
Параметр матрицы формата : Default (H.263)
Режим смешивания : Сжатый битовый поток
Идентификатор кодека : DX50
Идентификатор кодека/Подсказка : DivX 5
Продолжительность : 1 ч. 34 м.
Битрейт : 1300 Кбит/сек
Ширина : 640 пикселей
Высота : 480 пикселей
Соотношение сторон : 4:3
Частота кадров : 25,000 кадров/сек
Цветовое пространство : YUV
Субдискретизация насыщенности : 4:2:0
Битовая глубина : 8 бит
Тип развёртки : Прогрессивная
Метод сжатия : С потерями
Бит/(Пиксели*Кадры) : 0.169
Размер потока : 877 Мбайт (90%)
Заголовок : Video
Библиотека кодирования : DivX 5.2.1 Alpha (UTC 2004-09-08)

Аудио
Идентификатор : 1
Формат : MPEG Audio
Версия формата : Version 1
Профиль формата : Layer 3
Идентификатор кодека : 55
Идентификатор кодека/Подсказка : MP3
Продолжительность : 1 ч. 34 м.
Вид битрейта : Постоянный
Битрейт : 128 Кбит/сек
Каналы : 2 канала
Частота : 44,1 КГц
Метод сжатия : С потерями
Размер потока : 86,4 Мбайт (9%)
Выравнивание : Разделение по промежуткам
Продолжительность промежутка : 40 мс. (1,00 видеокадр)
Время предзагрузки промежутка : 500 мс.
Заголовок : Audio
Скриншоты:


Время раздачи: с 10:00 до 20:00
Prichina_smerti_[nnm-club]_avi_.torrent
 Торрент: Золотая раздача  Зарегистрирован
 
Примагнититься

Зарегистрируйтесь и скачайте торрент!
 Зарегистрирован:   02 Дек 2012 12:38:50
 Размер:   970 MB  (
 Рейтинг:    (Голосов: 10)
 Поблагодарили:   43
 Проверка:   Оформление проверено модератором 02 Дек 2012 12:39:33
Как cкачать  ·  Как раздать  ·  Правильно оформить  ·  Поднять ратио!  
Крепосной

Стаж: 2 года 7 месяцев
Сообщений: 12
Ratio: 0,895
Раздал: 169 GB
92.77%
Откуда: от туда --->
russia.gif

Сообщение 02 Дек 2012 13:21:28  Заголовок сообщения: Ответить с цитатой

Спасибо, посижу на раздаче!
Показать сообщения:   
Начать новую тему   Ответить на тему    Торрент-трекер NNM-Club -> Документалистика и Телепередачи -> Крылья России Часовой пояс: GMT + 4
Страница 1 из 1