Интеллигентный торрент-трекер
Нас вместе: 3 820 877 | Новости торрент-трекера | Как тут скачивать? | Как раздавать торренты? | Правила оформления

Александр Покрышкин (1985) VHSRip


 
 
RSS
Начать новую тему   Ответить на тему    Торрент-трекер NNM-Club -> Документалистика и Телепередачи -> Вторая Мировая война
Предыдущая тема :: Следующая тема  
Автор Сообщение
ZEL_GADIS ®


Стаж: 3 года 7 месяцев
Сообщений: 500
Ratio: 57,02
Поблагодарили: 4336
100%
logo.gif

Сообщение 17 Апр 2012 00:44:59  Заголовок сообщения: Александр Покрышкин (1985) VHSRip Ответить с цитатой

Александр Покрышкин (1985) VHSRip
Русское название: Александр Покрышкин
Режиссер Демин Д.
Телекомпания: Гостелерадио СССР
Год выпуска: 1985
Жанр: Документальный
Участники: Маршал авиации А.Покрышкин и его однополчане Г.Дольников, К.Сухов, В.Березкин, Г.Голубев, А.Труд, И.Бабак.
Продолжительность: 00:58:28

Описание:
О советском летчике-истребителе, трижды Герое Советского Союза, маршале авиации А.Покрышкине и его однополчанах Г.Дольникове, К.Сухове, В.Березкине, Г.Голубеве, А.Труде, И.Бабаке.

Видеокодек: Xvid
Битрейт видео: ~971 kbps
Размер кадра: 640x480
Качество видео: VHSRip
Аудиокодек: AC3, 2/0 (L,R) ch
Битрейт аудио: ~448.00 kbps
General
Complete name : T:\Cinema\Александр Покрышкин..avi
Format : AVI
Format/Info : Audio Video Interleave
File size : 598 MiB
Duration : 58mn 28s
Overall bit rate : 1 429 Kbps
Writing library : VirtualDub-MPEG2 build 24600/release

Video
ID : 0
Format : MPEG-4 Visual
Format profile : Advanced Simple@L5
Format settings, BVOP : 2
Format settings, QPel : No
Format settings, GMC : No warppoints
Format settings, Matrix : Default (H.263)
Muxing mode : Packed bitstream
Codec ID : XVID
Codec ID/Hint : XviD
Duration : 58mn 28s
Bit rate : 971 Kbps
Width : 640 pixels
Height : 480 pixels
Display aspect ratio : 4:3
Frame rate : 25.000 fps
Color space : YUV
Chroma subsampling : 4:2:0
Bit depth : 8 bits
Scan type : Progressive
Compression mode : Lossy
Bits/(Pixel*Frame) : 0.126
Stream size : 406 MiB (68%)
Writing library : XviD 1.2.0.dev47 (UTC 2006-11-01)

Audio
ID : 1
Format : AC-3
Format/Info : Audio Coding 3
Mode extension : CM (complete main)
Codec ID : 2000
Duration : 58mn 28s
Bit rate mode : Constant
Bit rate : 448 Kbps
Channel(s) : 2 channels
Channel positions : Front: L R
Sampling rate : 48.0 KHz
Bit depth : 16 bits
Compression mode : Lossy
Stream size : 187 MiB (31%)
Alignment : Aligned on interleaves
Interleave, duration : 40 ms (1.00 video frame)
Interleave, preload duration : 512 ms
Скриншоты:

Время раздачи: 24/7 - круглосуточно
[NNM-Club.ru]_Aleksandr Pokryishkin..avi.torrent
 Торрент: Золотая раздача  Зарегистрирован
 
Примагнититься

Зарегистрируйтесь и скачайте торрент!
 Зарегистрирован:   17 Апр 2012 00:44:59
 Размер:   598 MB  (
 Рейтинг:   4,9 (Голосов: 15)
 Поблагодарили:   55
 Проверка:   Оформление проверено модератором 17 Апр 2012 11:18:43
Как cкачать  ·  Как раздать  ·  Правильно оформить  ·  Поднять ратио!  
DerMann


Стаж: 4 года
Сообщений: 57
Ratio: 79,726
Поблагодарили: 321
56.44%
ussr.gif

Сообщение 30 Апр 2012 00:06:15  Заголовок сообщения: Ответить с цитатой

Спасибо за фильм! :респект:
Когда то в детстве, читал его книгу "Небо войны" очень понравилась...
politikus

Стаж: 3 года 8 месяцев
Сообщений: 2
Ratio: 1,54
11.3%
Откуда: dnepropetrovsk
ukraine.gif

Сообщение 30 Май 2012 01:02:09  Заголовок сообщения: Ответить с цитатой

Я тоже читал Небо войны еще в школьном возрасте до сих пор помню .
g_reset

Стаж: 4 года 4 месяцa
Сообщений: 14
Ratio: 6,691
100%
russia.gif

Сообщение 13 Авг 2012 16:44:33  Заголовок сообщения: Ответить с цитатой

Поддерживаю. Перечитал до дыр. Спасибо.

_________________
Количество разума на Земле постоянно. А население-то растет...
Показать сообщения:   
Начать новую тему   Ответить на тему    Торрент-трекер NNM-Club -> Документалистика и Телепередачи -> Вторая Мировая война Часовой пояс: GMT + 4
Страница 1 из 1