Интеллигентный торрент-трекер
Нас вместе: 3 807 064 | Новости торрент-трекера | Как тут скачивать? | Как раздавать торренты? | Правила оформления

Лего: Фабрика героев. Планета дикарей / Lego Hero Factory: Savage Planet (2011) DVDRip


 
 
RSS
Начать новую тему   Ответить на тему    Торрент-трекер NNM-Club -> Мультфильмы -> Зарубежные Мультфильмы (HD*Rip/LQ, DVDRip, SATRip, VHSRip)
Предыдущая тема :: Следующая тема  
Автор Сообщение
Ghost-13 ®


Стаж: 2 года 9 месяцев
Сообщений: 600
Ratio: 24,199
Поблагодарили: 25388
26.08%
ussr.gif

Сообщение 29 Янв 2012 07:43:27  Заголовок сообщения: Лего: Фабрика героев. Планета дикарей / Lego Hero Factory: Savage Planet (2011) DVDRip Ответить с цитатой

Лего: Фабрика героев. Планета дикарей / Lego Hero Factory: Savage Planet (2011) DVDRip
Русское название: Лего: Фабрика героев. Планета дикарей
Оригинальное название: Lego Hero Factory: Savage Planet
Год выпуска: 2011
Жанр: Компьютерная анимация

Перевод: Многоголосый закадровый, профессиональный



Режиссер: Ховард Э. Бэйкер
Персонажи: Стрингер, Стормер, Фурно, Некс, Балк

Описание фильма:
Добро пожаловать в Фабрику Героев. Место, где создают самых совершенных Героев во Вселенной для спасения мира от зла. Новичок Роска принимает сигнал бедствия, который послал Олдос Вич, совершивший аварийную посадку на планете Кватрос. Когда Роска пропадает без вести, Стрингер, Стормер, Фурно, Некс и Балк отправляются на его поиски. Они обнаруживают, что Олдос Вич, став безумным Доктором, превратил когда-то прекрасную планету в дикую пустошь и собирается уничтожить на ней всё, в том числе и наших Героев...

Продолжительность: 00:44:34
Качество видео: DVDRip

Видео: MPEG4, XviD, 720x400 (16:9), 23.976 fps, 2 020 Kbps (0.293 bit/pixel)
Аудио: AC-3, 44.1 KHz, 2 ch, 160 Kbps, CBR
D:\temp\[NNM-Club.ru]LEGO.Hero.Factory.Savage.Planet.2011.DVDRip.avi
General
Complete name : D:\temp\[NNM-Club.ru]LEGO.Hero.Factory.Savage.Planet.2011.DVDRip.avi
Format : AVI
Format/Info : Audio Video Interleave
File size : 698 MiB
Duration : 44mn 34s
Overall bit rate : 2 190 Kbps
Writing application : VirtualDubMod 1.5.10.2 (build 2540/release)
Writing library : VirtualDubMod build 2540/release
Video #0
ID : 0
Format : MPEG-4 Visual
Format profile : AdvancedSimple@L5
Format settings, BVOP : Yes
Format settings, QPel : No
Format settings, GMC : No warppoints
Format settings, Matrix : Default (H.263)
Codec ID : XVID
Codec ID/Hint : XviD
Duration : 44mn 34s
Bit rate : 2 020 Kbps
Width : 720 pixels
Height : 400 pixels
Display aspect ratio : 16:9
Frame rate : 23.976 fps
Resolution : 24 bits
Colorimetry : 4:2:0
Scan type : Progressive
Bits/(Pixel*Frame) : 0.293
Stream size : 644 MiB (92%)
Writing library : XviD 1.2.1 (UTC 2008-12-04)
Audio #1
ID : 1
Format : AC-3
Format/Info : Audio Coding 3
Codec ID : 2000
Duration : 44mn 32s
Bit rate mode : Constant
Bit rate : 160 Kbps
Channel(s) : 2 channels
Channel positions : L R
Sampling rate : 44.1 KHz
Stream size : 50.9 MiB (7%)
Alignment : Split accross interleaves
Interleave, duration : 42 ms (1.00 video frame)
Interleave, preload duration : 500 ms
Скриншоты:


Время раздачи: Первые сутки, далее по возможности
[NNM-Club.ru]LEGO.Hero.Factory.Savage.Planet.2011.DVDRip.avi.torrent
 Торрент: Золотая раздача  Зарегистрирован
 
Примагнититься

Зарегистрируйтесь и скачайте торрент!
 Зарегистрирован:   29 Янв 2012 07:43:27
 Размер:   698 MB  (
 Рейтинг:   4,3 (Голосов: 56)
 Поблагодарили:   292
 Проверка:   Оформление проверено модератором 05 Фев 2012 06:44:48
Как cкачать  ·  Как раздать  ·  Правильно оформить  ·  Поднять ратио!  
Гром1970


Стаж: 3 года 8 месяцев
Сообщений: 1
Ratio: 12,799
100%
Откуда: Харьков
ussr.gif

Сообщение 29 Янв 2012 11:36:26  Заголовок сообщения: Ответить с цитатой

Спасибо огромное... Ребенок в восторге!!!!
всё отлично.
session882

Стаж: 4 года 3 месяцa
Сообщений: 13
Ratio: 1,146
67.24%

Сообщение 11 Фев 2012 23:01:34  Заголовок сообщения: Ответить с цитатой

Спасибо!
Ребенок долго и терпеливо ждал этого продолжения!
dosent2000

Стаж: 2 года 8 месяцев
Сообщений: 20
Ratio: 1,169
32.31%

Сообщение 04 Апр 2013 08:49:29  Заголовок сообщения: Ответить с цитатой

Спасибо, ребёнрк в восторге!!
Показать сообщения:   
Начать новую тему   Ответить на тему    Торрент-трекер NNM-Club -> Мультфильмы -> Зарубежные Мультфильмы (HD*Rip/LQ, DVDRip, SATRip, VHSRip) Часовой пояс: GMT + 4
Страница 1 из 1