Интеллигентный торрент-трекер
Нас вместе: 3 807 366 | Новости торрент-трекера | Как тут скачивать? | Как раздавать торренты? | Правила оформления

Их знали только в лицо (1966) DVDRip


 
 
RSS
Начать новую тему   Ответить на тему    Торрент-трекер NNM-Club -> Классика кино и Фильмы до 90-х -> Отечественная Классика (HD*Rip/LQ, DVDRip, SATRip, VHSRip)
Предыдущая тема :: Следующая тема  
Автор Сообщение
viktor561 ®
Гость

Сообщение 11 Апр 2011 19:14:16  Заголовок сообщения: Их знали только в лицо (1966) DVDRip Ответить с цитатой

Их знали только в лицо (1966) DVDRip
Русское название: Их знали только в лицо
Год выпуска: 1966
Жанр: Драма, Военный

Описание фильма:
Один из оккупированных немцами, строжайше охраняемых портов постоянно сотрясают взрывы: взлетают на воздух военные корабли, танкеры с нефтью, транспортеры с продовольствием.
Чего только не предпринимает опытный военачальник Рейнкардт для ликвидации партизанского движения: облавы и аресты, вызван отряд из Италии, закаленный в подводной войне с Англией, но ничего не помогает. В ходе расследования в связи с партизанами начинают подозревать переводчицу из комендатуры порта, аккуратную и исполнительную служащую…


Режиссер: Антон Тимонишин
Актеры: Юрий Волков, Александр Белявский, Ирина Мирошниченко, Алексей Смирнов, Владимир Емельянов, Степан Крылов, П. Бантыш, Елена Добронравова, Сергей Голованов

Продолжительность: 01:26:59



Видеокодек: Xvid
Битрейт видео: ~1780 kb/s avg, 0.26 bit/pixel
Размер кадра: 720x384 (1.88:1)
Качество видео: DVDRip
Аудиокодек: AC3 Dolby Digital, 3/2 (L,C,R,l,r) + LFE ch
Битрейт аудио: ~448.00 kb/s
Общее
Полное имя : H:\ih_znali_tolko_v_lico.avi
Формат : AVI
Формат/Информация : Audio Video Interleave
Размер файла : 1,36 Гбайт
Продолжительность : 1 ч. 26 м.
Общий поток : 2238 Кбит/сек
Программа кодирования : VirtualDubMod 1.5.10.1 Рус от Stvens Inc.™ www.stvens.amillo.net (build 2366/release)
Библиотека кодирования : VirtualDubMod build 2366/release

Видео
Идентификатор : 0
Формат : MPEG-4 Visual
Профиль формата : Advanced Simple@L5
Параметр BVOP формата : 1
Параметр QPel формата : Нет
Параметр GMC формата : Без точки перехода
Параметр матрицы формата : Выборочная
Идентификатор кодека : XVID
Идентификатор кодека/Подсказка : XviD
Продолжительность : 1 ч. 26 м.
Битрейт : 1780 Кбит/сек
Ширина : 720 пикселей
Высота : 384 пикселя
Соотношение сторон : 1,875
Частота кадров : 25,000 кадров/сек
Цветовое пространство : YUV
Субдискретизация насыщенности : 4:2:0
Битовая глубина : 8 бит
Тип развёртки : Прогрессивная
Метод сжатия : С потерями
Бит/(Пиксели*Кадры) : 0.258
Размер потока : 1,08 Гбайт (80%)
Библиотека кодирования : XviD 1.2.0.dev47 (UTC 2006-11-01)

Аудио
Идентификатор : 1
Формат : AC-3
Формат/Информация : Audio Coding 3
Расширение режима : CM (complete main)
Идентификатор кодека : 2000
Продолжительность : 1 ч. 26 м.
Вид битрейта : Постоянный
Битрейт : 448 Кбит/сек
Каналы : 6 каналов
Расположение каналов : Front: L C R, Side: L R, LFE
Частота : 48,0 КГц
Битовая глубина : 16 бит
Метод сжатия : С потерями
Задержка видео : 16 мс.
Размер потока : 279 Мбайт (20%)
Выравнивание : Разделение по промежуткам
Продолжительность промежутка : 40 мс. (1,00 видеокадр)
Время предзагрузки промежутка : 500 мс.
Скриншоты:




Время раздачи: 24/7 - круглосуточно до 10 скачавших
[NNM-Club.ru]_ih_znali_tolko_v_lico.avi.torrent
 Торрент: Платиновая раздача  Зарегистрирован
 
Примагнититься
Free Leech
Скачать
13,8 KB
 Зарегистрирован:   11 Апр 2011 19:14:16
 Размер:   1,36 GB  (
 Рейтинг:   4,8 (Голосов: 35)
 Поблагодарили:   94
 Проверка:   Оформление проверено модератором 11 Апр 2011 22:09:33
Как cкачать  ·  Как раздать  ·  Правильно оформить  ·  Поднять ратио!  
viktor561 ®
Гость

Сообщение 11 Апр 2011 19:30:49  Заголовок сообщения: Ответить с цитатой

Мои релизы:
Не забываем про "СПАСИБО"
andris2

Стаж: 4 года 7 месяцев
Сообщений: 1453
Ratio: 2,251
Поблагодарили: 34
4.81%
russia.gif

Сообщение 12 Апр 2011 04:09:42  Заголовок сообщения: Ответить с цитатой

О, давний знакомый! Когда-то смотрел. Но сейчас это воспринимается довольно наивным и немного смешным синематографом. Впрочем, как и все прошлое, наверно выглядит немного наивным по отношению к сегодняшнему.
Dgekki


Стаж: 6 лет 1 месяц
Сообщений: 16
Ratio: 27,12
100%
russia.gif

Сообщение 02 Июл 2011 07:48:33  Заголовок сообщения: Ответить с цитатой

И правда ,выглядит немного наивным, вот только в жизни это все было всерьез.
Викторов
Меценат
Реставратор клуба
 


Стаж: 1 год 5 месяцев
Сообщений: 497
Ratio: 27M
Раздал: 6,549 TB
Поблагодарили: 12981
100%

Сообщение 27 Июн 2013 00:43:16  Заголовок сообщения: Ответить с цитатой

Код:
[poster=right]http://i.imgur.com/9h0r6lu.jpg[/poster]   
Общее
Полное имя : H:\ih_znali_tolko_v_lico.avi
Формат : AVI
Формат/Информация : Audio Video Interleave
Размер файла : 1,36 Гбайт
Продолжительность : 1 ч. 26 м.
Общий поток : 2238 Кбит/сек
Программа кодирования : VirtualDubMod 1.5.10.1 Рус от Stvens Inc.™ www.stvens.amillo.net (build 2366/release)
Библиотека кодирования : VirtualDubMod build 2366/release

Видео
Идентификатор : 0
Формат : MPEG-4 Visual
Профиль формата : Advanced Simple@L5
Параметр BVOP формата : 1
Параметр QPel формата : Нет
Параметр GMC формата : Без точки перехода
Параметр матрицы формата : Выборочная
Идентификатор кодека : XVID
Идентификатор кодека/Подсказка : XviD
Продолжительность : 1 ч. 26 м.
Битрейт : 1780 Кбит/сек
Ширина : 720 пикселей
Высота : 384 пикселя
Соотношение сторон : 1,875
Частота кадров : 25,000 кадров/сек
Цветовое пространство : YUV
Субдискретизация насыщенности : 4:2:0
Битовая глубина : 8 бит
Тип развёртки : Прогрессивная
Метод сжатия : С потерями
Бит/(Пиксели*Кадры) : 0.258
Размер потока : 1,08 Гбайт (80%)
Библиотека кодирования : XviD 1.2.0.dev47 (UTC 2006-11-01)

Аудио
Идентификатор : 1
Формат : AC-3
Формат/Информация : Audio Coding 3
Расширение режима : CM (complete main)
Идентификатор кодека : 2000
Продолжительность : 1 ч. 26 м.
Вид битрейта : Постоянный
Битрейт : 448 Кбит/сек
Каналы : 6 каналов
Расположение каналов : Front: L C R, Side: L R, LFE
Частота : 48,0 КГц
Битовая глубина : 16 бит
Метод сжатия : С потерями
Задержка видео : 16 мс.
Размер потока : 279 Мбайт (20%)
Выравнивание : Разделение по промежуткам
Продолжительность промежутка : 40 мс. (1,00 видеокадр)
Время предзагрузки промежутка : 500 мс.
Код:
 [b]Скриншоты:[/b]
[url=http://i.imgur.com/XyPLqv9.jpg][img]http://i.imgur.com/snREGO9.jpg[/img][/url]   [url=http://i.imgur.com/PjBQuIj.jpg][img]http://i.imgur.com/TpfZURu.jpg[/img][/url]   [url=http://i.imgur.com/5F9hPEc.jpg][img]http://i.imgur.com/YUVag2l.jpg[/img][/url]   [url=http://i.imgur.com/cnne3j2.jpg][img]http://i.imgur.com/zRJWOhZ.jpg[/img][/url]   [url=http://i.imgur.com/vqAlD7m.jpg][img]http://i.imgur.com/ioTVrhM.jpg[/img][/url]

[url=http://i.imgur.com/wkVSOAf.jpg][img]http://i.imgur.com/ICDzaG2.jpg[/img][/url]   [url=http://i.imgur.com/1zrZSV1.jpg][img]http://i.imgur.com/ciLZmvU.jpg[/img][/url]   
Показать сообщения:   
Начать новую тему   Ответить на тему    Торрент-трекер NNM-Club -> Классика кино и Фильмы до 90-х -> Отечественная Классика (HD*Rip/LQ, DVDRip, SATRip, VHSRip) Часовой пояс: GMT + 4
Страница 1 из 1